baixarbluray filmes e series em hd

Fate/Apocrypha

Fate/Apocrypha – O cenário é um mundo paralelo ao Fate / stay night onde o Grande Graal desapareceu misteriosamente de Fuyuki após a Terceira Guerra do Santo Graal. Depois de muitos anos de silêncio, ao mesmo tempo que a Guerra do Santo Graal teria acontecido, a Yggdmillennia, uma família de magos, declara abertamente a sua separação da Associação Mage e que estão em posse do Graal. A Associação envia cinquenta magos para recuperá-lo, e todos menos um são instantaneamente abatidos por um misterioso Servo. O restante consegue ativar o sistema de reserva do Grande Graal, permitindo a convocação de quatorze Servos no total.

Fate/Apocrypha

Título Original: Fate/Apocrypha
Qualidade: Bluray 1080p
Áudio: Dual Áudio
Legenda: Embutida (selecionável)
Tamanho: ~1,4 GB – Por Episódio

Temporada Completa – Fate/Apocrypha – Bluray 1080p

“Eu não queria me gabar nem nada, mas quando se trata de ser o pior, eu estou no topo.”

Fate/Apocrypha Bluray 1080p Bluray Remux 4K UHD 2160p HDR

Spoiler

Video
ID : 1
Format : AVC
Format/Info : Advanced Video Codec
Format profile : High 10@L5.1
Format settings : CABAC / 16 Ref Frames
Format settings, CABAC : Yes
Format settings, Reference fra : 16 frames
Codec ID : V_MPEG4/ISO/AVC
Duration : 23 min 47 s
Bit rate : 5 235 kb/s
Width : 1 920 pixels
Height : 1 080 pixels
Display aspect ratio : 16:9
Frame rate mode : Constant
Frame rate : 23.976 (24000/1001) FPS
Color space : YUV
Chroma subsampling : 4:2:0
Bit depth : 10 bits
Scan type : Progressive
Bits/(Pixel*Frame) : 0.105
Stream size : 889 MiB (78%)
Writing library : x264 core 152 r2851 ba24899
Encoding settings : cabac=1 / ref=16 / deblock=1:-2:-2 / analyse=0x3:0x113 / me=umh / subme=10 / psy=1 / psy_rd=1.00:0.00 / mixed_ref=1 / me_range=24 / chroma_me=1 / trellis=2 / 8x8dct=1 / cqm=0 / deadzone=21,11 / fast_pskip=1 / chroma_qp_offset=-2 / threads=12 / lookahead_threads=1 / sliced_threads=0 / nr=0 / decimate=1 / interlaced=0 / bluray_compat=0 / constrained_intra=0 / bframes=3 / b_pyramid=2 / b_adapt=2 / b_bias=0 / direct=3 / weightb=1 / open_gop=0 / weightp=2 / keyint=240 / keyint_min=23 / scenecut=40 / intra_refresh=0 / rc_lookahead=40 / rc=2pass / mbtree=1 / bitrate=5235 / ratetol=1.0 / qcomp=0.60 / qpmin=0 / qpmax=81 / qpstep=4 / cplxblur=20.0 / qblur=0.5 / ip_ratio=1.40 / aq=1:1.00
Default : Yes
Forced : No

Audio
ID : 2
Format : FLAC
Format/Info : Free Lossless Audio Codec
Codec ID : A_FLAC
Duration : 23 min 47 s
Bit rate mode : Variable
Bit rate : 1 443 kb/s
Channel(s) : 2 channels
Channel layout : L R
Sampling rate : 48.0 kHz
Frame rate : 10.417 FPS (4608 SPF)
Bit depth : 24 bits
Compression mode : Lossless
Stream size : 245 MiB (22%)
Writing library : Lavf57.83.100
Language : Japanese
Default : Yes
Forced : No
MD5 of the unencoded content : 9108CD30E21B34BAD5EE1B6D6258B502

Text
ID : 3
Format : ASS
Codec ID : S_TEXT/ASS
Codec ID/Info : Advanced Sub Station Alpha
Duration : 23 min 23 s
Bit rate : 106 b/s
Frame rate : 0.202 FPS
Count of elements : 284
Compression mode : Lossless
Stream size : 18.3 KiB (0%)
Language : Portuguese
Default : Yes
Forced : No

Menu
00:00:00.000 : Prólogo
00:04:15.004 : Parte A
00:21:40.045 : Encerramento
00:23:15.018 : Parte B
Karmezyn


Visite nosso fórum / Pedidos de Filmes / Pedidos de Séries

Fate/Apocrypha Bluray 1080p Bluray Remux 4K UHD 2160p HDR

Entrar

Não tem uma conta? Cadastre-se
Inscrever-se

Já tem uma conta? Entrar