baixarbluray filmes e series em hd

Mashle: Magia e Músculos

Mashle: Magia e Músculos – Em um mundo onde todos são capazes de usar magia, há uma floresta densa e escura, onde um jovem treina sem parar. Seu nome é Mash Burnedead, e ele guarda um segredo: ele não sabe usar magia. Tudo o que ele queria era levar uma vida tranquila com seu avô, mas a sociedade mágica não tolera não-usuários – e para escapar do perigo, ele acaba se matriculando na Escola de Magia. Seu objetivo? Tornar-se um Visionário Divino de elite, acima de tudo e todos. Será que seus músculos trincados vão conseguir encarar os maiores talentos do mundo mágico?

Mashle: Magia e Músculos

Título Original: Mashle: Magic and Muscles
Qualidade: WEB-DL 1080P
Áudio: Dual Áudio
Legenda: Embutida (selecionável)
Tamanho: ~1,4 – Por Episódio

1ª Temporada – Mashle: Magia e Músculos – WEB-DL 1080P

“Só apela pra magia, quem não se garante no soco! 👊”

Mashle: Magia e Músculos Bluray 1080p Bluray Remux 4K UHD 2160p HDR

Spoiler

Video
ID : 1
Format : AVC
Format/Info : Advanced Video Codec
Format profile : High@L4
Format settings : CABAC / 4 Ref Frames
Format settings, CABAC : Yes
Format settings, Reference fra : 4 frames
Format settings, GOP : M=1, N=48
Codec ID : V_MPEG4/ISO/AVC
Duration : 23 min 40 s
Bit rate : 8 000 kb/s
Width : 1 920 pixels
Height : 1 080 pixels
Display aspect ratio : 16:9
Frame rate mode : Constant
Frame rate : 23.976 (24000/1001) FPS
Color space : YUV
Chroma subsampling : 4:2:0
Bit depth : 8 bits
Scan type : Progressive
Bits/(Pixel*Frame) : 0.161
Stream size : 1.32 GiB (96%)
Writing library : x264 core 164
Encoding settings : cabac=1 / ref=4 / deblock=1:1:1 / analyse=0x3:0x113 / me=hex / subme=8 / psy=1 / psy_rd=0.40:0.00 / mixed_ref=1 / me_range=16 / chroma_me=1 / trellis=2 / 8x8dct=1 / cqm=0 / deadzone=21,11 / fast_pskip=1 / chroma_qp_offset=-2 / threads=34 / lookahead_threads=5 / sliced_threads=0 / nr=0 / decimate=1 / interlaced=0 / bluray_compat=0 / constrained_intra=0 / bframes=0 / weightp=2 / keyint=96 / keyint_min=48 / scenecut=40 / intra_refresh=0 / rc_lookahead=48 / rc=2pass / mbtree=1 / bitrate=8000 / ratetol=1.0 / qcomp=0.60 / qpmin=0 / qpmax=69 / qpstep=4 / cplxblur=20.0 / qblur=0.5 / vbv_maxrate=12000 / vbv_bufsize=18000 / nal_hrd=none / filler=0 / ip_ratio=1.40 / aq=1:0.60
Language : Japanese
Default : Yes
Forced : No
Color range : Limited
Color primaries : BT.709
Transfer characteristics : BT.709
Matrix coefficients : BT.709

Audio #1
ID : 2
Format : AAC LC
Format/Info : Advanced Audio Codec Low Complexity
Codec ID : A_AAC-2
Duration : 23 min 40 s
Bit rate : 128 kb/s
Channel(s) : 2 channels
Channel layout : L R
Sampling rate : 44.1 kHz
Frame rate : 43.066 FPS (1024 SPF)
Compression mode : Lossy
Stream size : 21.7 MiB (2%)
Title : Dublagem (Som de Vera Cruz)
Language : Portuguese
Default : Yes
Forced : Yes

Audio #2
ID : 3
Format : AAC LC
Format/Info : Advanced Audio Codec Low Complexity
Codec ID : A_AAC-2
Duration : 23 min 40 s
Bit rate : 128 kb/s
Channel(s) : 2 channels
Channel layout : L R
Sampling rate : 44.1 kHz
Frame rate : 43.066 FPS (1024 SPF)
Compression mode : Lossy
Stream size : 21.7 MiB (2%)
Language : Japanese
Default : No
Forced : No

Text #1
ID : 4
Format : ASS
Codec ID : S_TEXT/ASS
Codec ID/Info : Advanced Sub Station Alpha
Duration : 5 min 2 s
Bit rate : 11 b/s
Frame rate : 0.010 FPS
Count of elements : 3
Compression mode : Lossless
Stream size : 436 Bytes (0%)
Title : Português (Brasil) [Forced]
Language : Portuguese
Default : Yes
Forced : Yes

Text #2
ID : 5
Format : ASS
Codec ID : S_TEXT/ASS
Codec ID/Info : Advanced Sub Station Alpha
Duration : 23 min 38 s
Bit rate : 119 b/s
Frame rate : 0.220 FPS
Count of elements : 312
Compression mode : Lossless
Stream size : 20.6 KiB (0%)
Title : Português (Brasil) [Full]
Language : Portuguese
Default : No
Forced : No

Text #3
ID : 6
Format : ASS
Codec ID : S_TEXT/ASS
Codec ID/Info : Advanced Sub Station Alpha
Duration : 23 min 37 s
Bit rate : 115 b/s
Frame rate : 0.210 FPS
Count of elements : 298
Compression mode : Lossless
Stream size : 20.0 KiB (0%)
Title : English
Language : English
Default : No
Forced : No

Text #4
ID : 7
Format : ASS
Codec ID : S_TEXT/ASS
Codec ID/Info : Advanced Sub Station Alpha
Duration : 23 min 37 s
Bit rate : 132 b/s
Frame rate : 0.232 FPS
Count of elements : 329
Compression mode : Lossless
Stream size : 22.9 KiB (0%)
Title : Spanish(Latin_America)
Language : Spanish
Default : No
Forced : No

Text #5
ID : 8
Format : ASS
Codec ID : S_TEXT/ASS
Codec ID/Info : Advanced Sub Station Alpha
Duration : 23 min 37 s
Bit rate : 132 b/s
Frame rate : 0.232 FPS
Count of elements : 329
Compression mode : Lossless
Stream size : 22.9 KiB (0%)
Title : Spanish
Language : Spanish
Default : No
Forced : No

Text #6
ID : 9
Format : ASS
Codec ID : S_TEXT/ASS
Codec ID/Info : Advanced Sub Station Alpha
Duration : 23 min 37 s
Bit rate : 153 b/s
Frame rate : 0.211 FPS
Count of elements : 299
Compression mode : Lossless
Stream size : 26.6 KiB (0%)
Title : Arabic
Language : Arabic
Default : No
Forced : No

Text #7
ID : 10
Format : ASS
Codec ID : S_TEXT/ASS
Codec ID/Info : Advanced Sub Station Alpha
Duration : 23 min 37 s
Bit rate : 166 b/s
Frame rate : 0.281 FPS
Count of elements : 398
Compression mode : Lossless
Stream size : 28.8 KiB (0%)
Title : French
Language : French
Default : No
Forced : No

Text #8
ID : 11
Format : ASS
Codec ID : S_TEXT/ASS
Codec ID/Info : Advanced Sub Station Alpha
Duration : 23 min 37 s
Bit rate : 145 b/s
Frame rate : 0.227 FPS
Count of elements : 322
Compression mode : Lossless
Stream size : 25.3 KiB (0%)
Title : German
Language : German
Default : No
Forced : No

Text #9
ID : 12
Format : ASS
Codec ID : S_TEXT/ASS
Codec ID/Info : Advanced Sub Station Alpha
Duration : 23 min 37 s
Bit rate : 179 b/s
Frame rate : 0.274 FPS
Count of elements : 389
Compression mode : Lossless
Stream size : 31.1 KiB (0%)
Title : Italian
Language : Italian
Default : No
Forced : No

Text #10
ID : 13
Format : ASS
Codec ID : S_TEXT/ASS
Codec ID/Info : Advanced Sub Station Alpha
Duration : 23 min 37 s
Bit rate : 232 b/s
Frame rate : 0.247 FPS
Count of elements : 350
Compression mode : Lossless
Stream size : 40.2 KiB (0%)
Title : Russian
Language : Russian
Default : No
Forced : No


Visite nosso fórum / Pedidos de Filmes / Pedidos de Séries

Mashle: Magia e Músculos Bluray 1080p Bluray Remux 4K UHD 2160p HDR

Entrar

Não tem uma conta? Cadastre-se
Inscrever-se

Já tem uma conta? Entrar