baixarbluray filmes e series em hd

Os Vingadores: A Série

Os Vingadores: A Série – Houve um tempo em que os maiores heróis do planeta possuiam uma equipe localizada em outra parte dos EUA. Na verdade, era um outro grupo de Vingadores que patrulhavam a Zona Oeste dos Estados Unidos.

Os Vingadores: A Série

Título Original: The Avengers: United They Stand
Qualidade: WEB-DL
Áudio: Dual Áudio
Legenda: Embutida (selecionável)
Tamanho: S01 6.3 GB |

1ª Temporada – Os Vingadores: A Série – WEB-DL

“Os super-heróis mais poderosos do universo estão prontos!”

Os Vingadores: A Série Bluray 1080p Bluray Remux 4K UHD 2160p HDR

Spoiler

Video
ID : 1
Format : AVC
Format/Info : Advanced Video Codec
Format profile : Main@L3.1
Format settings : CABAC / 4 Ref Frames
Format settings, CABAC : Yes
Format settings, Reference fra : 4 frames
Codec ID : V_MPEG4/ISO/AVC
Duration : 21 min 25 s
Bit rate mode : Variable
Bit rate : 2 989 kb/s
Maximum bit rate : 4 500 kb/s
Width : 640 pixels
Height : 480 pixels
Display aspect ratio : 4:3
Frame rate mode : Constant
Frame rate : 23.976 (24000/1001) FPS
Color space : YUV
Chroma subsampling : 4:2:0
Bit depth : 8 bits
Scan type : Progressive
Bits/(Pixel*Frame) : 0.406
Stream size : 458 MiB (92%)
Title : Project by Troidex
Default : Yes
Forced : No
Color range : Limited
Matrix coefficients : BT.601

Audio #1
ID : 2
Format : AAC LC
Format/Info : Advanced Audio Codec Low Complexity
Codec ID : A_AAC-2
Duration : 21 min 25 s
Bit rate : 125 kb/s
Channel(s) : 2 channels
Channel layout : L R
Sampling rate : 48.0 kHz
Frame rate : 46.875 FPS (1024 SPF)
Compression mode : Lossy
Stream size : 19.2 MiB (4%)
Title : PT-BR [Troidex]
Language : Portuguese (BR)
Default : Yes
Forced : No

Audio #2
ID : 3
Format : AAC LC
Format/Info : Advanced Audio Codec Low Complexity
Codec ID : A_AAC-2
Duration : 21 min 25 s
Bit rate : 125 kb/s
Channel(s) : 2 channels
Channel layout : L R
Sampling rate : 48.0 kHz
Frame rate : 46.875 FPS (1024 SPF)
Compression mode : Lossy
Stream size : 19.2 MiB (4%)
Title : Inglês [Troidex]
Language : English
Default : No
Forced : No

Text
ID : 4
Format : UTF-8
Codec ID : S_TEXT/UTF8
Codec ID/Info : UTF-8 Plain Text
Duration : 20 min 44 s
Bit rate : 61 b/s
Frame rate : 0.241 FPS
Count of elements : 300
Stream size : 9.28 KiB (0%)
Title : Inglês (SDH) [Troidex]
Language : English
Default : No
Forced : No
Karmezyn


Visite nosso fórum / Pedidos de Filmes / Pedidos de Séries

Os Vingadores: A Série Bluray 1080p Bluray Remux 4K UHD 2160p HDR

Entrar

Não tem uma conta? Cadastre-se
Inscrever-se

Já tem uma conta? Entrar