baixarbluray filmes e series em hd

SAND LAND: THE SERIES

SAND LAND: THE SERIES – Sand Land é um mundo misterioso onde demônios e humanos lutam para sobreviver em uma terra árida. Na esperança de reabastecer o suprimento de água, o Príncipe dos Demônios, Beelzebub, um demônio chamado Thief, e um humano chamado xerife Rao se unem e embarcam numa jornada em busca do Lago Lendário.

SAND LAND: THE SERIES

Título Original: SAND LAND: THE SERIES
Qualidade: WEB-DL 1080P
Áudio: Dual Áudio
Legenda: Embutida (selecionável)
Tamanho: ~1,0 GB – Por Episódio

1ª Temporada – Sand Land: The Series – WEB-DL 1080P
Atualizado com EP 10

SAND LAND: THE SERIES Bluray 1080p Bluray Remux 4K UHD 2160p HDR

Spoiler

Video
ID : 1
Format : AVC
Format/Info : Advanced Video Codec
Format profile : High@L4
Format settings : CABAC / 4 Ref Frames
Format settings, CABAC : Yes
Format settings, Reference fra : 4 frames
Codec ID : V_MPEG4/ISO/AVC
Duration : 24 min 2 s
Bit rate mode : Variable
Bit rate : 6 160 kb/s
Maximum bit rate : 12.7 Mb/s
Width : 1 920 pixels
Height : 1 080 pixels
Display aspect ratio : 16:9
Frame rate mode : Constant
Frame rate : 24.000 FPS
Color space : YUV
Chroma subsampling : 4:2:0
Bit depth : 8 bits
Scan type : Progressive
Bits/(Pixel*Frame) : 0.124
Stream size : 1.03 GiB (96%)
Default : Yes
Forced : No
Color range : Limited
Color primaries : BT.709
Transfer characteristics : BT.709
Matrix coefficients : BT.709

Audio
ID : 2
Format : E-AC-3
Format/Info : Enhanced AC-3
Commercial name : Dolby Digital Plus
Codec ID : A_EAC3
Duration : 24 min 2 s
Bit rate mode : Constant
Bit rate : 256 kb/s
Channel(s) : 6 channels
Channel layout : L R C LFE Ls Rs
Sampling rate : 48.0 kHz
Frame rate : 31.250 FPS (1536 SPF)
Compression mode : Lossy
Stream size : 44.0 MiB (4%)
Language : Japanese
Service kind : Complete Main
Default : Yes
Forced : No

Text #1
ID : 3
Format : UTF-8
Codec ID : S_TEXT/UTF8
Codec ID/Info : UTF-8 Plain Text
Duration : 23 min 36 s
Bit rate : 68 b/s
Frame rate : 0.260 FPS
Count of elements : 368
Stream size : 11.8 KiB (0%)
Title : Brazilian
Language : Portuguese (BR)
Default : Yes
Forced : No

Text #2
ID : 4
Format : UTF-8
Codec ID : S_TEXT/UTF8
Codec ID/Info : UTF-8 Plain Text
Duration : 23 min 48 s
Bit rate : 74 b/s
Frame rate : 0.304 FPS
Count of elements : 435
Stream size : 13.0 KiB (0%)
Title : SDH
Language : English
Default : No
Forced : No

Text #3
ID : 5
Format : UTF-8
Codec ID : S_TEXT/UTF8
Codec ID/Info : UTF-8 Plain Text
Duration : 23 min 36 s
Bit rate : 64 b/s
Frame rate : 0.263 FPS
Count of elements : 373
Stream size : 11.2 KiB (0%)
Language : Czech
Default : No
Forced : No

Text #4
ID : 6
Format : UTF-8
Codec ID : S_TEXT/UTF8
Codec ID/Info : UTF-8 Plain Text
Duration : 23 min 36 s
Bit rate : 64 b/s
Frame rate : 0.263 FPS
Count of elements : 373
Stream size : 11.2 KiB (0%)
Language : Danish
Default : No
Forced : No

Text #5
ID : 7
Format : UTF-8
Codec ID : S_TEXT/UTF8
Codec ID/Info : UTF-8 Plain Text
Duration : 23 min 36 s
Bit rate : 72 b/s
Frame rate : 0.258 FPS
Count of elements : 366
Stream size : 12.6 KiB (0%)
Language : German
Default : No
Forced : No

Text #6
ID : 8
Format : UTF-8
Codec ID : S_TEXT/UTF8
Codec ID/Info : UTF-8 Plain Text
Duration : 23 min 36 s
Bit rate : 110 b/s
Frame rate : 0.263 FPS
Count of elements : 373
Stream size : 19.1 KiB (0%)
Language : Greek
Default : No
Forced : No

Text #7
ID : 9
Format : UTF-8
Codec ID : S_TEXT/UTF8
Codec ID/Info : UTF-8 Plain Text
Duration : 23 min 36 s
Bit rate : 66 b/s
Frame rate : 0.264 FPS
Count of elements : 374
Stream size : 11.4 KiB (0%)
Title : Latin American
Language : Spanish (Latin America)
Default : No
Forced : No

Text #8
ID : 10
Format : UTF-8
Codec ID : S_TEXT/UTF8
Codec ID/Info : UTF-8 Plain Text
Duration : 23 min 36 s
Bit rate : 75 b/s
Frame rate : 0.257 FPS
Count of elements : 364
Stream size : 13.0 KiB (0%)
Title : European
Language : Spanish (ES)
Default : No
Forced : No

Text #9
ID : 11
Format : UTF-8
Codec ID : S_TEXT/UTF8
Codec ID/Info : UTF-8 Plain Text
Duration : 23 min 36 s
Bit rate : 62 b/s
Frame rate : 0.263 FPS
Count of elements : 372
Stream size : 10.7 KiB (0%)
Language : Finnish
Default : No
Forced : No

Text #10
ID : 12
Format : UTF-8
Codec ID : S_TEXT/UTF8
Codec ID/Info : UTF-8 Plain Text
Duration : 23 min 36 s
Bit rate : 72 b/s
Frame rate : 0.258 FPS
Count of elements : 366
Stream size : 12.6 KiB (0%)
Title : European
Language : French (FR)
Default : No
Forced : No

Text #11
ID : 13
Format : UTF-8
Codec ID : S_TEXT/UTF8
Codec ID/Info : UTF-8 Plain Text
Duration : 23 min 36 s
Bit rate : 67 b/s
Frame rate : 0.259 FPS
Count of elements : 367
Stream size : 11.6 KiB (0%)
Language : Hungarian
Default : No
Forced : No

Text #12
ID : 14
Format : UTF-8
Codec ID : S_TEXT/UTF8
Codec ID/Info : UTF-8 Plain Text
Duration : 23 min 36 s
Bit rate : 64 b/s
Frame rate : 0.262 FPS
Count of elements : 371
Stream size : 11.2 KiB (0%)
Language : Italian
Default : No
Forced : No

Text #13
ID : 15
Format : UTF-8
Codec ID : S_TEXT/UTF8
Codec ID/Info : UTF-8 Plain Text
Duration : 23 min 28 s
Bit rate : 113 b/s
Frame rate : 0.330 FPS
Count of elements : 464
Stream size : 19.5 KiB (0%)
Title : SDH
Language : Japanese
Default : No
Forced : No

Text #14
ID : 16
Format : UTF-8
Codec ID : S_TEXT/UTF8
Codec ID/Info : UTF-8 Plain Text
Duration : 23 min 48 s
Bit rate : 94 b/s
Frame rate : 0.312 FPS
Count of elements : 446
Stream size : 16.6 KiB (0%)
Title : SDH
Language : Korean
Default : No
Forced : No

Text #15
ID : 17
Format : UTF-8
Codec ID : S_TEXT/UTF8
Codec ID/Info : UTF-8 Plain Text
Duration : 23 min 36 s
Bit rate : 60 b/s
Frame rate : 0.236 FPS
Count of elements : 335
Stream size : 10.4 KiB (0%)
Language : Dutch
Default : No
Forced : No

Text #16
ID : 18
Format : UTF-8
Codec ID : S_TEXT/UTF8
Codec ID/Info : UTF-8 Plain Text
Duration : 23 min 36 s
Bit rate : 60 b/s
Frame rate : 0.252 FPS
Count of elements : 357
Stream size : 10.5 KiB (0%)
Language : Norwegian
Default : No
Forced : No

Text #17
ID : 19
Format : UTF-8
Codec ID : S_TEXT/UTF8
Codec ID/Info : UTF-8 Plain Text
Duration : 23 min 36 s
Bit rate : 62 b/s
Frame rate : 0.260 FPS
Count of elements : 369
Stream size : 10.9 KiB (0%)
Language : Polish
Default : No
Forced : No

Text #18
ID : 20
Format : UTF-8
Codec ID : S_TEXT/UTF8
Codec ID/Info : UTF-8 Plain Text
Duration : 23 min 36 s
Bit rate : 69 b/s
Frame rate : 0.264 FPS
Count of elements : 374
Stream size : 12.0 KiB (0%)
Title : European
Language : Portuguese (PT)
Default : No
Forced : No

Text #19
ID : 21
Format : UTF-8
Codec ID : S_TEXT/UTF8
Codec ID/Info : UTF-8 Plain Text
Duration : 23 min 36 s
Bit rate : 65 b/s
Frame rate : 0.223 FPS
Count of elements : 316
Stream size : 11.3 KiB (0%)
Language : Romanian
Default : No
Forced : No

Text #20
ID : 22
Format : UTF-8
Codec ID : S_TEXT/UTF8
Codec ID/Info : UTF-8 Plain Text
Duration : 23 min 36 s
Bit rate : 60 b/s
Frame rate : 0.263 FPS
Count of elements : 372
Stream size : 10.5 KiB (0%)
Language : Slovak
Default : No
Forced : No

Text #21
ID : 23
Format : UTF-8
Codec ID : S_TEXT/UTF8
Codec ID/Info : UTF-8 Plain Text
Duration : 23 min 36 s
Bit rate : 61 b/s
Frame rate : 0.261 FPS
Count of elements : 370
Stream size : 10.7 KiB (0%)
Language : Swedish
Default : No
Forced : No

Text #22
ID : 24
Format : UTF-8
Codec ID : S_TEXT/UTF8
Codec ID/Info : UTF-8 Plain Text
Duration : 23 min 36 s
Bit rate : 63 b/s
Frame rate : 0.265 FPS
Count of elements : 375
Stream size : 10.9 KiB (0%)
Language : Turkish
Default : No
Forced : No

Text #23
ID : 25
Format : UTF-8
Codec ID : S_TEXT/UTF8
Codec ID/Info : UTF-8 Plain Text
Duration : 23 min 36 s
Bit rate : 62 b/s
Frame rate : 0.264 FPS
Count of elements : 374
Stream size : 10.7 KiB (0%)
Title : Traditional
Language : Chinese (Traditional)
Default : No
Forced : No

Menu
00:05:36.167 : en:Episode Intro
00:05:48.708 : en:Chapter 1
00:09:46.833 : en:Chapter 2
00:19:30.500 : en:Chapter 3
00:21:04.208 : en:Tag Start
00:23:35.958 : en:Tag End
00:24:03.958 : en:Start Credits
Karmezyn


Visite nosso fórum / Pedidos de Filmes / Pedidos de Séries

SAND LAND: THE SERIES Bluray 1080p Bluray Remux 4K UHD 2160p HDR

SAND LAND: THE SERIES,SAND LAND: THE SERIES,baixar,download,dublado,dual audio

Entrar

Não tem uma conta? Cadastre-se
Inscrever-se

Já tem uma conta? Entrar