Sonic Prime

Sonic Prime – Uma batalha explosiva contra o Dr. Eggman abala o universo. Agora, Sonic precisa viajar por dimensões paralelas para reencontrar os amigos e salvar o mundo.

Sonic Prime

Título Original: Sonic Prime
Qualidade: 1080P WEB-DL
Áudio: Dual Áudio
Legenda: Embutida (selecionável)
 
1ª Temporada – WEB-DL 1080P

Sonic Prime Bluray 1080p Bluray Remux 4K UHD 2160p HDR

Spoiler

Video
ID : 1
Format : AVC
Format/Info : Advanced Video Codec
Format profile : Main@L4
Format settings : CABAC / 3 Ref Frames
Format settings, CABAC : Yes
Format settings, Reference fra : 3 frames
Codec ID : V_MPEG4/ISO/AVC
Duration : 43 min 26 s
Bit rate mode : Variable
Bit rate : 4 578 kb/s
Nominal bit rate : 5 000 kb/s
Maximum bit rate : 7 500 kb/s
Width : 1 920 pixels
Height : 1 080 pixels
Display aspect ratio : 16:9
Frame rate mode : Constant
Frame rate : 23.976 (24000/1001) FPS
Color space : YUV
Chroma subsampling : 4:2:0
Bit depth : 8 bits
Scan type : Progressive
Bits/(Pixel*Frame) : 0.092
Stream size : 1.39 GiB (88%)
Writing library : x264 core 148 r2727 7d026e8
Encoding settings : cabac=1 / ref=3 / deblock=1:0:0 / analyse=0x1:0x111 / me=umh / subme=10 / psy=1 / psy_rd=1.00:0.00 / mixed_ref=1 / me_range=24 / chroma_me=1 / trellis=2 / 8x8dct=0 / cqm=0 / deadzone=21,11 / fast_pskip=1 / chroma_qp_offset=-2 / threads=8 / lookahead_threads=1 / sliced_threads=0 / nr=0 / decimate=1 / interlaced=0 / bluray_compat=0 / stitchable=1 / constrained_intra=0 / bframes=2 / b_pyramid=0 / b_adapt=2 / b_bias=0 / direct=3 / weightb=1 / open_gop=0 / weightp=2 / keyint=48 / keyint_min=25 / scenecut=0 / intra_refresh=0 / rc_lookahead=48 / rc=2pass / mbtree=1 / bitrate=5000 / ratetol=1.0 / qcomp=0.50 / qpmin=6 / qpmax=51 / qpstep=4 / cplxblur=20.0 / qblur=0.5 / vbv_maxrate=7500 / vbv_bufsize=10000 / nal_hrd=vbr / filler=0 / ip_ratio=1.40 / aq=1:1.00
Language : English
Default : Yes
Forced : No

Audio
ID : 2
Format : E-AC-3
Format/Info : Enhanced AC-3
Commercial name : Dolby Digital Plus
Codec ID : A_EAC3
Duration : 43 min 26 s
Bit rate mode : Constant
Bit rate : 640 kb/s
Channel(s) : 6 channels
Channel layout : L R C LFE Ls Rs
Sampling rate : 48.0 kHz
Frame rate : 31.250 FPS (1536 SPF)
Compression mode : Lossy
Stream size : 199 MiB (12%)
Language : English
Service kind : Complete Main
Default : Yes
Forced : No

Text #1
ID : 3
Format : UTF-8
Codec ID : S_TEXT/UTF8
Codec ID/Info : UTF-8 Plain Text
Duration : 38 min 47 s
Bit rate : 61 b/s
Frame rate : 0.243 FPS
Count of elements : 566
Stream size : 17.4 KiB (0%)
Language : English
Default : No
Forced : No

Text #2
ID : 4
Format : UTF-8
Codec ID : S_TEXT/UTF8
Codec ID/Info : UTF-8 Plain Text
Duration : 39 min 2 s
Bit rate : 67 b/s
Frame rate : 0.282 FPS
Count of elements : 661
Stream size : 19.4 KiB (0%)
Title : SDH
Language : English
Default : No
Forced : No

Text #3
ID : 5
Format : UTF-8
Codec ID : S_TEXT/UTF8
Codec ID/Info : UTF-8 Plain Text
Duration : 39 min 30 s
Bit rate : 92 b/s
Frame rate : 0.209 FPS
Count of elements : 496
Stream size : 26.7 KiB (0%)
Language : Arabic
Default : No
Forced : No

Text #4
ID : 6
Format : UTF-8
Codec ID : S_TEXT/UTF8
Codec ID/Info : UTF-8 Plain Text
Duration : 39 min 30 s
Bit rate : 52 b/s
Frame rate : 0.180 FPS
Count of elements : 426
Stream size : 15.1 KiB (0%)
Language : Catalan
Default : No
Forced : No

Text #5
ID : 7
Format : UTF-8
Codec ID : S_TEXT/UTF8
Codec ID/Info : UTF-8 Plain Text
Duration : 39 min 30 s
Bit rate : 55 b/s
Frame rate : 0.210 FPS
Count of elements : 498
Stream size : 16.0 KiB (0%)
Language : Czech
Default : No
Forced : No

Text #6
ID : 8
Format : UTF-8
Codec ID : S_TEXT/UTF8
Codec ID/Info : UTF-8 Plain Text
Duration : 39 min 30 s
Bit rate : 49 b/s
Frame rate : 0.184 FPS
Count of elements : 435
Stream size : 14.2 KiB (0%)
Language : Danish
Default : No
Forced : No

Text #7
ID : 9
Format : UTF-8
Codec ID : S_TEXT/UTF8
Codec ID/Info : UTF-8 Plain Text
Duration : 39 min 30 s
Bit rate : 54 b/s
Frame rate : 0.191 FPS
Count of elements : 452
Stream size : 15.8 KiB (0%)
Language : German
Default : No
Forced : No

Text #8
ID : 10
Format : UTF-8
Codec ID : S_TEXT/UTF8
Codec ID/Info : UTF-8 Plain Text
Duration : 39 min 30 s
Bit rate : 84 b/s
Frame rate : 0.188 FPS
Count of elements : 445
Stream size : 24.4 KiB (0%)
Language : Greek
Default : No
Forced : No

Text #9
ID : 11
Format : UTF-8
Codec ID : S_TEXT/UTF8
Codec ID/Info : UTF-8 Plain Text
Duration : 39 min 30 s
Bit rate : 49 b/s
Frame rate : 0.208 FPS
Count of elements : 494
Stream size : 14.2 KiB (0%)
Title : Latin American
Language : Spanish
Default : No
Forced : No

Text #10
ID : 12
Format : UTF-8
Codec ID : S_TEXT/UTF8
Codec ID/Info : UTF-8 Plain Text
Duration : 39 min 28 s
Bit rate : 47 b/s
Frame rate : 0.191 FPS
Count of elements : 453
Stream size : 13.7 KiB (0%)
Language : Spanish
Default : No
Forced : No

Text #11
ID : 13
Format : UTF-8
Codec ID : S_TEXT/UTF8
Codec ID/Info : UTF-8 Plain Text
Duration : 39 min 30 s
Bit rate : 51 b/s
Frame rate : 0.180 FPS
Count of elements : 427
Stream size : 15.0 KiB (0%)
Language : Basque
Default : No
Forced : No

Text #12
ID : 14
Format : UTF-8
Codec ID : S_TEXT/UTF8
Codec ID/Info : UTF-8 Plain Text
Duration : 39 min 30 s
Bit rate : 50 b/s
Frame rate : 0.179 FPS
Count of elements : 425
Stream size : 14.6 KiB (0%)
Language : Finnish
Default : No
Forced : No

Text #13
ID : 15
Format : UTF-8
Codec ID : S_TEXT/UTF8
Codec ID/Info : UTF-8 Plain Text
Duration : 39 min 31 s
Bit rate : 49 b/s
Frame rate : 0.188 FPS
Count of elements : 445
Stream size : 14.4 KiB (0%)
Language : fil
Default : No
Forced : No

Text #14
ID : 16
Format : UTF-8
Codec ID : S_TEXT/UTF8
Codec ID/Info : UTF-8 Plain Text
Duration : 38 min 54 s
Bit rate : 51 b/s
Frame rate : 0.197 FPS
Count of elements : 461
Stream size : 14.7 KiB (0%)
Language : French
Default : No
Forced : No

Text #15
ID : 17
Format : UTF-8
Codec ID : S_TEXT/UTF8
Codec ID/Info : UTF-8 Plain Text
Duration : 39 min 30 s
Bit rate : 47 b/s
Frame rate : 0.206 FPS
Count of elements : 489
Stream size : 13.8 KiB (0%)
Language : Galician
Default : No
Forced : No

Text #16
ID : 18
Format : UTF-8
Codec ID : S_TEXT/UTF8
Codec ID/Info : UTF-8 Plain Text
Duration : 39 min 30 s
Bit rate : 88 b/s
Frame rate : 0.197 FPS
Count of elements : 467
Stream size : 25.6 KiB (0%)
Language : Hebrew
Default : No
Forced : No

Text #17
ID : 19
Format : UTF-8
Codec ID : S_TEXT/UTF8
Codec ID/Info : UTF-8 Plain Text
Duration : 39 min 29 s
Bit rate : 42 b/s
Frame rate : 0.204 FPS
Count of elements : 484
Stream size : 12.4 KiB (0%)
Language : Croatian
Default : No
Forced : No

Text #18
ID : 20
Format : UTF-8
Codec ID : S_TEXT/UTF8
Codec ID/Info : UTF-8 Plain Text
Duration : 39 min 30 s
Bit rate : 48 b/s
Frame rate : 0.187 FPS
Count of elements : 444
Stream size : 14.2 KiB (0%)
Language : Hungarian
Default : No
Forced : No

Text #19
ID : 21
Format : UTF-8
Codec ID : S_TEXT/UTF8
Codec ID/Info : UTF-8 Plain Text
Duration : 39 min 30 s
Bit rate : 47 b/s
Frame rate : 0.190 FPS
Count of elements : 451
Stream size : 13.7 KiB (0%)
Language : Indonesian
Default : No
Forced : No

Text #20
ID : 22
Format : UTF-8
Codec ID : S_TEXT/UTF8
Codec ID/Info : UTF-8 Plain Text
Duration : 39 min 36 s
Bit rate : 48 b/s
Frame rate : 0.186 FPS
Count of elements : 443
Stream size : 14.0 KiB (0%)
Language : Italian
Default : No
Forced : No

Text #21
ID : 23
Format : UTF-8
Codec ID : S_TEXT/UTF8
Codec ID/Info : UTF-8 Plain Text
Duration : 39 min 30 s
Bit rate : 63 b/s
Frame rate : 0.204 FPS
Count of elements : 483
Stream size : 18.3 KiB (0%)
Language : Japanese
Default : No
Forced : No

Text #22
ID : 24
Format : UTF-8
Codec ID : S_TEXT/UTF8
Codec ID/Info : UTF-8 Plain Text
Duration : 39 min 30 s
Bit rate : 71 b/s
Frame rate : 0.213 FPS
Count of elements : 506
Stream size : 20.7 KiB (0%)
Language : Korean
Default : No
Forced : No

Text #23
ID : 25
Format : UTF-8
Codec ID : S_TEXT/UTF8
Codec ID/Info : UTF-8 Plain Text
Duration : 39 min 33 s
Bit rate : 51 b/s
Frame rate : 0.211 FPS
Count of elements : 501
Stream size : 15.0 KiB (0%)
Language : Malay
Default : No
Forced : No

Text #24
ID : 26
Format : UTF-8
Codec ID : S_TEXT/UTF8
Codec ID/Info : UTF-8 Plain Text
Duration : 39 min 30 s
Bit rate : 46 b/s
Frame rate : 0.193 FPS
Count of elements : 457
Stream size : 13.5 KiB (0%)
Language : Norwegian Bokmal
Default : No
Forced : No

Text #25
ID : 27
Format : UTF-8
Codec ID : S_TEXT/UTF8
Codec ID/Info : UTF-8 Plain Text
Duration : 39 min 30 s
Bit rate : 49 b/s
Frame rate : 0.169 FPS
Count of elements : 401
Stream size : 14.5 KiB (0%)
Language : Dutch
Default : No
Forced : No

Text #26
ID : 28
Format : UTF-8
Codec ID : S_TEXT/UTF8
Codec ID/Info : UTF-8 Plain Text
Duration : 39 min 30 s
Bit rate : 48 b/s
Frame rate : 0.206 FPS
Count of elements : 489
Stream size : 14.1 KiB (0%)
Language : Polish
Default : No
Forced : No

Text #27
ID : 29
Format : UTF-8
Codec ID : S_TEXT/UTF8
Codec ID/Info : UTF-8 Plain Text
Duration : 39 min 30 s
Bit rate : 50 b/s
Frame rate : 0.197 FPS
Count of elements : 466
Stream size : 14.6 KiB (0%)
Title : Brazilian
Language : Portuguese
Default : No
Forced : No

Text #28
ID : 30
Format : UTF-8
Codec ID : S_TEXT/UTF8
Codec ID/Info : UTF-8 Plain Text
Duration : 39 min 30 s
Bit rate : 54 b/s
Frame rate : 0.199 FPS
Count of elements : 471
Stream size : 15.8 KiB (0%)
Language : Portuguese
Default : No
Forced : No

Text #29
ID : 31
Format : UTF-8
Codec ID : S_TEXT/UTF8
Codec ID/Info : UTF-8 Plain Text
Duration : 38 min 49 s
Bit rate : 56 b/s
Frame rate : 0.202 FPS
Count of elements : 471
Stream size : 16.0 KiB (0%)
Language : Romanian
Default : No
Forced : No

Text #30
ID : 32
Format : UTF-8
Codec ID : S_TEXT/UTF8
Codec ID/Info : UTF-8 Plain Text
Duration : 39 min 30 s
Bit rate : 86 b/s
Frame rate : 0.201 FPS
Count of elements : 476
Stream size : 25.2 KiB (0%)
Language : Russian
Default : No
Forced : No

Text #31
ID : 33
Format : UTF-8
Codec ID : S_TEXT/UTF8
Codec ID/Info : UTF-8 Plain Text
Duration : 39 min 30 s
Bit rate : 52 b/s
Frame rate : 0.154 FPS
Count of elements : 364
Stream size : 15.2 KiB (0%)
Language : Swedish
Default : No
Forced : No

Text #32
ID : 34
Format : UTF-8
Codec ID : S_TEXT/UTF8
Codec ID/Info : UTF-8 Plain Text
Duration : 39 min 30 s
Bit rate : 136 b/s
Frame rate : 0.213 FPS
Count of elements : 504
Stream size : 39.5 KiB (0%)
Language : Thai
Default : No
Forced : No

Text #33
ID : 35
Format : UTF-8
Codec ID : S_TEXT/UTF8
Codec ID/Info : UTF-8 Plain Text
Duration : 39 min 30 s
Bit rate : 52 b/s
Frame rate : 0.184 FPS
Count of elements : 435
Stream size : 15.2 KiB (0%)
Language : Turkish
Default : No
Forced : No

Text #34
ID : 36
Format : UTF-8
Codec ID : S_TEXT/UTF8
Codec ID/Info : UTF-8 Plain Text
Duration : 39 min 30 s
Bit rate : 90 b/s
Frame rate : 0.208 FPS
Count of elements : 492
Stream size : 26.1 KiB (0%)
Language : Ukrainian
Default : No
Forced : No

Text #35
ID : 37
Format : UTF-8
Codec ID : S_TEXT/UTF8
Codec ID/Info : UTF-8 Plain Text
Duration : 39 min 30 s
Bit rate : 76 b/s
Frame rate : 0.180 FPS
Count of elements : 427
Stream size : 22.3 KiB (0%)
Language : Vietnamese
Default : No
Forced : No

Text #36
ID : 38
Format : UTF-8
Codec ID : S_TEXT/UTF8
Codec ID/Info : UTF-8 Plain Text
Duration : 39 min 30 s
Bit rate : 55 b/s
Frame rate : 0.213 FPS
Count of elements : 504
Stream size : 16.1 KiB (0%)
Title : Simplified
Language : Chinese
Default : No
Forced : No

Text #37
ID : 39
Format : UTF-8
Codec ID : S_TEXT/UTF8
Codec ID/Info : UTF-8 Plain Text
Duration : 39 min 30 s
Bit rate : 54 b/s
Frame rate : 0.211 FPS
Count of elements : 500
Stream size : 15.7 KiB (0%)
Title : Traditional
Language : Chinese
Default : No
Forced : No


Visite nosso fórum / Pedidos de Filmes / Pedidos de Séries

Sonic Prime Bluray 1080p Bluray Remux 4K UHD 2160p HDR

Entrar

Não tem uma conta? Cadastre-se
Inscrever-se

Já tem uma conta? Entrar