baixarbluray filmes e series em hd

X-Men ’97

X-Men ’97 revisita a era icônica dos anos 1990, quando os X-Men, um grupo de mutantes que usam seus dons extraordinários para proteger um mundo que os odeia e teme, são desafiados como nunca antes, forçados a enfrentar um novo futuro perigoso e inesperado.

X-Men ’97

Título Original: X-Men ’97
Qualidade: WEB-DL 1080P / WEB-DL 2160P
Áudio: Dual Áudio
Legenda: Embutida (selecionável)
Tamanho: ~1,7 GB – Por Episódio | ~2,7 GB – Por Episódio

ATUALIZADO: Episódio 5

1ª Temporada – X-Men ’97 – WEB-DL 1080P
1ª Temporada – X-Men ’97 – WEB-DL 2160P

“A mim, meus X-Men!”

X-Men

Spoiler

Video
ID : 1
Format : AVC
Format/Info : Advanced Video Codec
Format profile : High@L4
Format settings : CABAC / 4 Ref Frames
Format settings, CABAC : Yes
Format settings, Reference fra : 4 frames
Codec ID : V_MPEG4/ISO/AVC
Duration : 30 min 30 s
Bit rate mode : Variable
Bit rate : 7 343 kb/s
Maximum bit rate : 12.7 Mb/s
Width : 1 920 pixels
Height : 1 080 pixels
Display aspect ratio : 16:9
Frame rate mode : Constant
Frame rate : 24.000 FPS
Color space : YUV
Chroma subsampling : 4:2:0
Bit depth : 8 bits
Scan type : Progressive
Bits/(Pixel*Frame) : 0.148
Stream size : 1.56 GiB (88%)
Language : English
Default : Yes
Forced : No
Color range : Limited
Color primaries : BT.709
Transfer characteristics : BT.709
Matrix coefficients : BT.709

X-Men

Spoiler

Video
ID : 1
Format : HEVC
Format/Info : High Efficiency Video Coding
Format profile : Main 10@L5@High
HDR format : SMPTE ST 2086, HDR10 compatible
Codec ID : V_MPEGH/ISO/HEVC
Duration : 30 min 30 s
Bit rate : 12.0 Mb/s
Width : 3 840 pixels
Height : 2 160 pixels
Display aspect ratio : 16:9
Frame rate mode : Constant
Frame rate : 24.000 FPS
Color space : YUV
Chroma subsampling : 4:2:0
Bit depth : 10 bits
Bits/(Pixel*Frame) : 0.060
Stream size : 2.56 GiB (92%)
Default : Yes
Forced : No
Color range : Limited
Color primaries : BT.2020
Transfer characteristics : PQ
Matrix coefficients : BT.2020 non-constant
Mastering display color primar : BT.2020
Mastering display luminance : min: 0.0000 cd/m2, max: 1000 cd/m2
Karmezyn


Visite nosso fórum / Pedidos de Filmes / Pedidos de Séries

X-Men

X-Men ’97,X-Men ’97,baixar,download,dublado,dual audio,Karmezyn

Comentários

    1. Esta muito enganado meu amigo, como assim a maioria? 10% dos filmes estão de fato offline.
      Se criticar e falar groselha é o melhor que consegue fazer, acho melhor procurar outro lugar pra baixar seus filmes, agora se deseja solicitar o reupload e aguardar o mesmo acontecer, fique a vontade para solicitar e nós faremos o nosso melhor.

Entrar

Não tem uma conta? Cadastre-se
Inscrever-se

Já tem uma conta? Entrar