baixarbluray filmes e series em hd

Bob Esponja Calça Quadrada

Bob Esponja Calça Quadrada – Uma esponja-do-mar chamada Bob Esponja Calça Quadrada mora com seu caracol de estimação na Fenda do Biquíni, no fundo do oceano. Bob trabalha no Siri Cascudo e, nas horas vagas, vive arrumando confusões com seu melhor amigo, a estrela-do-mar Patrick.

Bob Esponja Calça Quadrada

Título Original: SpongeBob SquarePants
Qualidade: WEB-DL 1080P
Áudio: Dual Áudio
Legenda: Embutida (selecionável)
Tamanho: Total – S01 15.6 GB | S02 15.9 | S03 15.8 | S04 15.4 | S05 16.3 | S06 20.1 | S07 20.2 | S08 20.2 | S09 20.4 | S10 8.3 | S11 19.4 | S12 19.8

1ª Temporada – Bob Esponja Calça Quadrada – WEB-DL 1080P
2ª Temporada – Bob Esponja Calça Quadrada – WEB-DL 1080P
3ª Temporada – Bob Esponja Calça Quadrada – WEB-DL 1080P
4ª Temporada – Bob Esponja Calça Quadrada – WEB-DL 1080P
5ª Temporada – Bob Esponja Calça Quadrada – WEB-DL 1080P
6ª Temporada – Bob Esponja Calça Quadrada – WEB-DL 1080P
7ª Temporada – Bob Esponja Calça Quadrada – WEB-DL 1080P
8ª Temporada – Bob Esponja Calça Quadrada – WEB-DL 1080P
9ª Temporada – Bob Esponja Calça Quadrada – WEB-DL 1080P
10ª Temporada – Bob Esponja Calça Quadrada – WEB-DL 1080P
11ª Temporada – Bob Esponja Calça Quadrada – WEB-DL 1080P
12ª Temporada – Bob Esponja Calça Quadrada – WEB-DL 1080P

“Você vem dizer que eu sou um garoto e eu falo de novo, Obrigado!
Obrigado por dizer!”

Bob Esponja Calça Quadrada Bluray 1080p Bluray Remux 4K UHD 2160p HDR

Spoiler

Video
ID : 1
Format : AVC
Format/Info : Advanced Video Codec
Format profile : High@L4
Format settings : CABAC / 4 Ref Frames
Format settings, CABAC : Yes
Format settings, Reference fra : 4 frames
Format settings, GOP : M=4, N=48
Codec ID : V_MPEG4/ISO/AVC
Duration : 23 min 41 s
Bit rate : 4 500 kb/s
Width : 1 920 pixels
Height : 1 080 pixels
Display aspect ratio : 16:9
Frame rate mode : Constant
Frame rate : 23.976 (24000/1001) FPS
Color space : YUV
Chroma subsampling : 4:2:0
Bit depth : 8 bits
Scan type : Progressive
Bits/(Pixel*Frame) : 0.091
Stream size : 735 MiB (94%)
Writing library : x264 core 161
Encoding settings : cabac=1 / ref=4 / deblock=1:0:0 / analyse=0x3:0x113 / me=hex / subme=8 / psy=1 / psy_rd=1.00:0.00 / mixed_ref=1 / me_range=16 / chroma_me=1 / trellis=2 / 8x8dct=1 / cqm=0 / deadzone=21,11 / fast_pskip=1 / chroma_qp_offset=-2 / threads=6 / lookahead_threads=1 / sliced_threads=0 / nr=0 / decimate=1 / interlaced=0 / bluray_compat=0 / stitchable=1 / constrained_intra=0 / bframes=3 / b_pyramid=2 / b_adapt=1 / b_bias=0 / direct=3 / weightb=1 / open_gop=0 / weightp=2 / keyint=48 / keyint_min=4 / scenecut=0 / intra_refresh=0 / rc_lookahead=48 / rc=2pass / mbtree=1 / bitrate=4500 / ratetol=1.0 / qcomp=0.60 / qpmin=0 / qpmax=69 / qpstep=4 / cplxblur=20.0 / qblur=0.5 / vbv_maxrate=5400 / vbv_bufsize=4500 / nal_hrd=none / filler=0 / ip_ratio=1.40 / aq=1:1.00
Default : Yes
Forced : No

Audio #1
ID : 2
Format : AAC LC
Format/Info : Advanced Audio Codec Low Complexity
Codec ID : A_AAC-2
Duration : 23 min 41 s
Bit rate : 125 kb/s
Channel(s) : 2 channels
Channel layout : L R
Sampling rate : 48.0 kHz
Frame rate : 46.875 FPS (1024 SPF)
Compression mode : Lossy
Stream size : 21.1 MiB (3%)
Title : Brazilian
Language : Portuguese
Default : Yes
Forced : No

Audio #2
ID : 3
Format : AAC LC
Format/Info : Advanced Audio Codec Low Complexity
Codec ID : A_AAC-2
Duration : 23 min 41 s
Bit rate : 125 kb/s
Channel(s) : 2 channels
Channel layout : L R
Sampling rate : 48.0 kHz
Frame rate : 46.875 FPS (1024 SPF)
Compression mode : Lossy
Stream size : 21.1 MiB (3%)
Language : English
Default : No
Forced : No
Karmezyn


Visite nosso fórum / Pedidos de Filmes / Pedidos de Séries

Bob Esponja Calça Quadrada Bluray 1080p Bluray Remux 4K UHD 2160p HDR

Entrar

Não tem uma conta? Cadastre-se
Inscrever-se

Já tem uma conta? Entrar