baixarbluray filmes e series em hd

Coragem o Cão Covarde

Coragem, o Cão Covarde – Coragem é um cão incrivelmente tímido e muito fácil de assustar que precisa defender um velho casal de aposentados de acontecimentos paranormais que ameaçam a segurança e a estabilidade da sua casa.

Coragem o Cão Covarde

Título Original: Courage the Cowardly Dog
Qualidade: WEB-DL 1080P (HBO)
Áudio: Dual Áudio
Tamanho: ~1,4 GB – Por Episódio

1ª Temporada – Coragem, o Cão Covarde – WEB-DL 1080P
2ª Temporada – Coragem, o Cão Covarde – WEB-DL 1080P
3ª Temporada – Coragem, o Cão Covarde – WEB-DL 1080P
4ª Temporada – Coragem, o Cão Covarde – WEB-DL 1080P

“Cachorro estúpido.”

Coragem, o Cão Covarde Bluray 1080p Bluray Remux 4K UHD 2160p HDR

Spoiler

Video
ID : 1
Format : AVC
Format/Info : Advanced Video Codec
Format profile : High@L4
Format settings : CABAC / 4 Ref Frames
Format settings, CABAC : Yes
Format settings, Reference fra : 4 frames
Codec ID : V_MPEG4/ISO/AVC
Duration : 22 min 34 s
Bit rate mode : Variable
Bit rate : 8 250 kb/s
Maximum bit rate : 12.4 Mb/s
Width : 1 920 pixels
Height : 1 080 pixels
Display aspect ratio : 16:9
Frame rate mode : Constant
Frame rate : 29.970 (30000/1001) FPS
Color space : YUV
Chroma subsampling : 4:2:0
Bit depth : 8 bits
Scan type : Progressive
Bits/(Pixel*Frame) : 0.133
Stream size : 1.30 GiB (91%)
Writing library : x264 core 157 r2965 861cec4
Encoding settings : cabac=1 / ref=4 / deblock=1:0:0 / analyse=0x3:0x113 / me=hex / subme=7 / psy=1 / psy_rd=1.00:0.00 / mixed_ref=1 / me_range=16 / chroma_me=1 / trellis=1 / 8x8dct=1 / cqm=0 / deadzone=21,11 / fast_pskip=1 / chroma_qp_offset=-2 / threads=34 / lookahead_threads=5 / sliced_threads=0 / nr=0 / decimate=1 / interlaced=0 / bluray_compat=0 / constrained_intra=0 / bframes=3 / b_pyramid=2 / b_adapt=1 / b_bias=0 / direct=1 / weightb=1 / open_gop=0 / weightp=2 / keyint=120 / keyint_min=120 / scenecut=40 / intra_refresh=0 / rc_lookahead=40 / rc=2pass / mbtree=1 / bitrate=8250 / ratetol=1.0 / qcomp=0.60 / qpmin=0 / qpmax=69 / qpstep=4 / cplxblur=20.0 / qblur=0.5 / vbv_maxrate=12375 / vbv_bufsize=6187 / nal_hrd=vbr / filler=0 / ip_ratio=1.40 / aq=1:1.00
Default : Yes
Forced : No
Color range : Limited
Color primaries : BT.709
Transfer characteristics : BT.709
Matrix coefficients : BT.709

Audio #1
ID : 2
Format : AC-3
Format/Info : Audio Coding 3
Commercial name : Dolby Digital
Codec ID : A_AC3
Duration : 22 min 34 s
Bit rate mode : Constant
Bit rate : 384 kb/s
Channel(s) : 2 channels
Channel layout : L R
Sampling rate : 48.0 kHz
Frame rate : 31.250 FPS (1536 SPF)
Compression mode : Lossy
Stream size : 62.0 MiB (4%)
Title : Portuguese
Language : Portuguese
Service kind : Complete Main
Default : Yes
Forced : No

Audio #2
ID : 3
Format : AC-3
Format/Info : Audio Coding 3
Commercial name : Dolby Digital
Codec ID : A_AC3
Duration : 22 min 34 s
Bit rate mode : Constant
Bit rate : 384 kb/s
Channel(s) : 2 channels
Channel layout : L R
Sampling rate : 48.0 kHz
Frame rate : 31.250 FPS (1536 SPF)
Compression mode : Lossy
Stream size : 62.0 MiB (4%)
Title : English
Language : English
Service kind : Complete Main
Default : Yes
Forced : No


Visite nosso fórum / Pedidos de Filmes / Pedidos de Séries

Coragem, o Cão Covarde Bluray 1080p Bluray Remux 4K UHD 2160p HDR

Comentários

  • @gabrielpl94
    Eu removi do site pra verificar, mas infelizmente não posso fazer nada por esse desenho, alguns episódios da versão brasileira não foram dublados pois a cartoon network censurou, e a questão da organização, é obra da CN tbm, por isso tem ep de uma temporada em outra, e a HBO só trouxe do jeito que estava, então meio que não tem muito o que fazer, vou deixar essa versão da HBO no site mesmo assim, mas pra responder o seu caso, o que consegui foi isso.

    1. Valeu, cara. Tá beleza, é melhor do que ficar sem… eu organizo aqui, e quanto aos faltantes, eu vejo como faço aqui (tô buscando torrentes — em qualidade inferior, mas é o que tem). De todo modo, valeu mesmo. Desculpa qualquer coisa.

  • Primeiramente agradeço a essa grande publicação no site. Porém na 2ª temporada falta o episódio 13 – A Torre do Doutor Zalost.
    Se tiver disponível para adicionar. Grato

Entrar

Não tem uma conta? Cadastre-se
Inscrever-se

Já tem uma conta? Entrar