baixarbluray filmes e series em hd

Dragon Ball GT

Dragon Ball GT -A história se passa 10 anos após o final da saga Z, Goku reencontra vilões de sua infância, que estão roubando as esferas do dragão que estão no templo do kamisama, goku descobre o que eles estão tramando e por um engano, pilaf deseja que Shenlong transforme Goku em criança, agora as esferas se espalharam pelo universo e goku e seus amigos tem apenas um ano para encontrar todas, antes que a terra exploda. Eles embarcam numa aventura em busca das 7 esferas do dragão.

Dragon Ball GT

Título Original: ドラゴンボールGT
Qualidade: DVD-REMUX Upscale
Áudio: Dual Áudio
Legenda: Embutida (selecionável)
Tamanho: ~1,4 GB – Por Episódio

O restante da temporada será postada muito em breve, aguardem.
1ª Temporada – Dragon Ball GT – DVD-REMUX Upscale

“Baby sem Vegeta não é ninguém,
Então queime no Sol pra nunca mais machucar alguém!”

Dragon Ball GT Bluray 1080p Bluray Remux 4K UHD 2160p HDR

Spoiler

Video
ID : 1
Format : AVC
Format/Info : Advanced Video Codec
Format profile : High@L4
Format settings : CABAC / 4 Ref Frames
Format settings, CABAC : Yes
Format settings, Reference fra : 4 frames
Codec ID : V_MPEG4/ISO/AVC
Duration : 24 min 38 s
Bit rate : 8 000 kb/s
Width : 1 440 pixels
Height : 1 080 pixels
Display aspect ratio : 4:3
Frame rate mode : Constant
Frame rate : 23.976 (24000/1001) FPS
Color space : YUV
Chroma subsampling : 4:2:0
Bit depth : 8 bits
Scan type : Progressive
Bits/(Pixel*Frame) : 0.215
Stream size : 1.38 GiB (97%)
Writing library : x264 core 163 r3059 b684ebe0
Encoding settings : cabac=1 / ref=3 / deblock=1:0:0 / analyse=0x3:0x113 / me=hex / subme=7 / psy=1 / psy_rd=1.00:0.00 / mixed_ref=1 / me_range=16 / chroma_me=1 / trellis=1 / 8x8dct=1 / cqm=0 / deadzone=21,11 / fast_pskip=1 / chroma_qp_offset=-2 / threads=18 / lookahead_threads=3 / sliced_threads=0 / nr=0 / decimate=1 / interlaced=0 / bluray_compat=0 / constrained_intra=0 / bframes=3 / b_pyramid=2 / b_adapt=1 / b_bias=0 / direct=1 / weightb=1 / open_gop=0 / weightp=2 / keyint=240 / keyint_min=24 / scenecut=40 / intra_refresh=0 / rc_lookahead=40 / rc=2pass / mbtree=1 / bitrate=8000 / ratetol=1.0 / qcomp=0.60 / qpmin=0 / qpmax=69 / qpstep=4 / cplxblur=20.0 / qblur=0.5 / vbv_maxrate=25000 / vbv_bufsize=31250 / nal_hrd=none / filler=0 / ip_ratio=1.40 / aq=1:1.00
Default : Yes
Forced : No
Color range : Limited
Color primaries : BT.709
Transfer characteristics : BT.709
Matrix coefficients : BT.709

Audio #1
ID : 2
Format : AC-3
Format/Info : Audio Coding 3
Commercial name : Dolby Digital
Codec ID : A_AC3
Duration : 24 min 37 s
Bit rate mode : Constant
Bit rate : 128 kb/s
Channel(s) : 2 channels
Channel layout : L R
Sampling rate : 48.0 kHz
Frame rate : 31.250 FPS (1536 SPF)
Compression mode : Lossy
Stream size : 22.6 MiB (2%)
Language : Portuguese
Service kind : Complete Main
Default : Yes
Forced : No

Audio #2
ID : 3
Format : AC-3
Format/Info : Audio Coding 3
Commercial name : Dolby Digital
Codec ID : A_AC3
Duration : 24 min 37 s
Bit rate mode : Constant
Bit rate : 128 kb/s
Channel(s) : 2 channels
Channel layout : L R
Sampling rate : 48.0 kHz
Frame rate : 31.250 FPS (1536 SPF)
Compression mode : Lossy
Stream size : 22.6 MiB (2%)
Language : Japanese
Service kind : Complete Main
Default : No
Forced : No

Text
ID : 4
Format : ASS
Codec ID : S_TEXT/ASS
Codec ID/Info : Advanced Sub Station Alpha
Duration : 22 min 46 s
Bit rate : 126 b/s
Frame rate : 0.187 FPS
Count of elements : 256
Compression mode : Lossless
Stream size : 21.1 KiB (0%)
Language : Portuguese
Default : No
Forced : No


Visite nosso fórum / Pedidos de Filmes / Pedidos de Séries

Dragon Ball GT Bluray 1080p Bluray Remux 4K UHD 2160p HDR

Comentários

  • Excelente postagem,uma das melhores musicas de abertura que ja existiu, tem previsão dos demais episódios? muito obrigado pela raridade com essa excelente qualidade.

    1. Previsão é em torno de Junho, quando eu tiver bastante tempo para trabalhar nesse projeto que é muito complicado de trazer, por conta da diversidade de fontes para filtrar e mesclar, e estou tentando fazer isso com a melhor qualidade da internet, por esse motivo, peço que aproveite o que já tem pré-pronto e aguarde.

  • Acredito que exista um bluray do dragon ball gt lançado em algum país
    Uma vez encontrei no site nyaa
    Baixei um episódio uma vez, lembro que era uns 4gb e a imagem era excelente

Entrar

Não tem uma conta? Cadastre-se
Inscrever-se

Já tem uma conta? Entrar