baixarbluray filmes e series em hd

Pokémon

Pokémon – Explore o mundo de Pokémon com Ash e seu parceiro Pikachu em busca do sonho do menino de ser um mestre Pokémon.

Pokémon

Título Original: Pocket Monsters
Qualidade: Bluray 1080p
Áudio: Dual Áudio
Legenda: Embutida (selecionável)
Tamanho: ~1,5 GB – Por Episódio

1ª Temporada: Pokémon – Liga Índigo (001-082) – DVD-RMZ
2ª Temporada: Pokémon – Aventuras nas Ilhas Laranja (083-118) – DVD-RMZ
3ª Temporada: Pokémon – Liga Johto (119-159) – DVD-RMZ
4ª Temporada: Pokémon – Campeões da Liga Johto (160-211) – DVD-RMZ
5ª Temporada: Pokémon – Master Quest (212-276) – DVD-RMZ

Pokémon – Episódio Piloto – Blu-Ray REMUX
1ª Temporada: Liga Índigo (001-052) – Pokémon – Bluray 1080p

“Esse meu jeito de viver… sei que ninguém nunca foi igual
A minha vida é fazer… o bem vencer o mal.”

Pokémon Bluray 1080p Bluray Remux 4K UHD 2160p HDR

Spoiler

Video
ID : 1
Format : AVC
Format/Info : Advanced Video Codec
Format profile : High@L4.1
Format settings : CABAC / 4 Ref Frames
Format settings, CABAC : Yes
Format settings, Reference fra : 4 frames
Codec ID : V_MPEG4/ISO/AVC
Duration : 22 min 22 s
Bit rate : 9 000 kb/s
Width : 1 440 pixels
Height : 1 080 pixels
Display aspect ratio : 4:3
Frame rate mode : Constant
Frame rate : 29.970 (30000/1001) FPS
Original frame rate : 29.970 (29970/1000) FPS
Color space : YUV
Chroma subsampling : 4:2:0
Bit depth : 8 bits
Scan type : Progressive
Bits/(Pixel*Frame) : 0.193
Stream size : 1.41 GiB (97%)
Title : Edição Alkabane & gregoryluis09
Writing library : x264 core 146 r2538 121396c
Encoding settings : cabac=1 / ref=3 / deblock=1:0:0 / analyse=0x3:0 / me=dia / subme=1 / psy=1 / psy_rd=1.00:0.00 / mixed_ref=0 / me_range=16 / chroma_me=1 / trellis=1 / 8x8dct=1 / cqm=0 / deadzone=21,11 / fast_pskip=1 / chroma_qp_offset=0 / threads=9 / lookahead_threads=1 / sliced_threads=0 / nr=0 / decimate=1 / interlaced=0 / bluray_compat=0 / constrained_intra=0 / bframes=3 / b_pyramid=2 / b_adapt=1 / b_bias=0 / direct=3 / weightb=1 / open_gop=0 / weightp=2 / keyint=250 / keyint_min=25 / scenecut=40 / intra_refresh=0 / rc_lookahead=40 / rc=2pass / mbtree=1 / bitrate=9000 / ratetol=1.0 / qcomp=0.60 / qpmin=0 / qpmax=69 / qpstep=4 / cplxblur=20.0 / qblur=0.5 / ip_ratio=1.40 / aq=1:1.00
Language : English
Default : Yes
Forced : No

Audio #1
ID : 2
Format : AAC LC
Format/Info : Advanced Audio Codec Low Complexity
Codec ID : A_AAC-2
Duration : 22 min 23 s
Bit rate : 154 kb/s
Channel(s) : 2 channels
Channel layout : L R
Sampling rate : 48.0 kHz
Frame rate : 46.875 FPS (1024 SPF)
Compression mode : Lossy
Delay relative to video : 9 ms
Stream size : 24.7 MiB (2%)
Title : Brasil
Language : Portuguese
Default : Yes
Forced : No

Audio #2
ID : 3
Format : AAC LC
Format/Info : Advanced Audio Codec Low Complexity
Codec ID : A_AAC-2
Duration : 22 min 22 s
Bit rate : 159 kb/s
Channel(s) : 2 channels
Channel layout : L R
Sampling rate : 48.0 kHz
Frame rate : 46.875 FPS (1024 SPF)
Compression mode : Lossy
Delay relative to video : 9 ms
Stream size : 25.4 MiB (2%)
Title : Original
Language : English
Default : No
Forced : No


Visite nosso fórum / Pedidos de Filmes / Pedidos de Séries

Pokémon Bluray 1080p Bluray Remux 4K UHD 2160p HDR

Comentários

Entrar

Não tem uma conta? Cadastre-se
Inscrever-se

Já tem uma conta? Entrar